Crash 2004 720p Esub BluRay Dual Audio English Hindi GOPISAHI

Format                         : Matroska
Format version                 : Version 4 / Version 2
File size                      : 325 MiB
Duration                       : 1 h 34 min
Overall bit rate               : 480 kb/s
Movie name                     : Cover Me 1995

Video
Format                         : AVC
Codec ID                       : V_MPEG4/ISO/AVC
Duration                       : 1 h 34 min
Bit rate                       : 300 kb/s
Width                          : 720 pixels
Height                         : 548 pixels
Display aspect ratio           : 4:3
Frame rate mode                : Constant
Frame rate                     : 25.000 FPS
Stream size                    : 203 MiB (63{c3004b8f5e0f37c8553e313d82107df75406ab532a995ee1e957eb0f6eb30398})
Writing library                : x264

Audio #1
Format                         : AAC
Duration                       : 1 h 34 min
Bit rate                       : 93.3 kb/s
Channel(s)                     : 6 channels
Channel positions              : Front: L C R, Side: L R, LFE
Sampling rate                  : 44.1 kHz
Frame rate                     : 43.066 FPS (1024 SPF)
Compression mode               : Lossy
Stream size                    : 63.2 MiB (19{c3004b8f5e0f37c8553e313d82107df75406ab532a995ee1e957eb0f6eb30398})
Language                       : English

Audio #2
Format                         : AAC
Duration                       : 1 h 34 min
Bit rate                       : 83.6 kb/s
Channel(s)                     : 6 channels
Channel positions              : Front: L C R, Side: L R, LFE
Sampling rate                  : 44.1 kHz
Frame rate                     : 43.066 FPS (1024 SPF)
Stream size                    : 56.7 MiB (17{c3004b8f5e0f37c8553e313d82107df75406ab532a995ee1e957eb0f6eb30398})
Language                       : Hindi

https://3.bp.blogspot.com/-sYS0yCctKDI/Wk-hfhb8a9I/AAAAAAAAQ_8/oVMeDjatICEVIMSletayCTOHXss-kxZTgCLcBGAs/s1600/Crash{c3004b8f5e0f37c8553e313d82107df75406ab532a995ee1e957eb0f6eb30398}2B2004{c3004b8f5e0f37c8553e313d82107df75406ab532a995ee1e957eb0f6eb30398}2B720p{c3004b8f5e0f37c8553e313d82107df75406ab532a995ee1e957eb0f6eb30398}2BEsub{c3004b8f5e0f37c8553e313d82107df75406ab532a995ee1e957eb0f6eb30398}2BBluRay{c3004b8f5e0f37c8553e313d82107df75406ab532a995ee1e957eb0f6eb30398}2BDual{c3004b8f5e0f37c8553e313d82107df75406ab532a995ee1e957eb0f6eb30398}2BAudio{c3004b8f5e0f37c8553e313d82107df75406ab532a995ee1e957eb0f6eb30398}2BEnglish{c3004b8f5e0f37c8553e313d82107df75406ab532a995ee1e957eb0f6eb30398}2BHindi{c3004b8f5e0f37c8553e313d82107df75406ab532a995ee1e957eb0f6eb30398}2BGOPISAHI.mkv_thumbs.jpg

DRIVE

More DD links

Leave a Comment